<?xml version="1.0" standalone="no"?>
<!DOCTYPE svg PUBLIC "-//W3C//DTD SVG 1.1//EN" "http://www.w3.org/Graphics/SVG/1.1/DTD/svg11.dtd" >
<svg xmlns="http://www.w3.org/2000/svg">
<metadata>Generated by IcoMoon</metadata>
<defs>
<font id="icomoon" horiz-adv-x="1024">
<font-face units-per-em="1024" ascent="960" descent="-64" />
<missing-glyph horiz-adv-x="1024" />
<glyph unicode="&#x20;" horiz-adv-x="512" d="" />
<glyph unicode="&#xe900;" glyph-name="chevron-left" d="M736.501 69.452c13.676-13.88 13.676-36.179 0-49.957s-35.771-13.829-49.447 0l-399.555 403.536c-13.676 13.778-13.676 36.077 0 49.957l399.555 403.536c13.676 13.778 35.771 13.778 49.447 0 13.676-13.829 13.676-36.179 0-49.957l-364.397-378.583 364.397-378.532z" />
<glyph unicode="&#xe901;" glyph-name="chevron-right" d="M681.853 452.809l-364.397 378.634c-13.676 13.778-13.676 36.077 0 49.957 13.676 13.778 35.771 13.778 49.447 0l399.555-403.536c13.676-13.829 13.676-36.179 0-49.957l-399.555-403.536c-13.676-13.829-35.771-13.778-49.447 0-13.676 13.727-13.676 36.077 0 49.957l364.397 378.481z" />
<glyph unicode="&#xe902;" glyph-name="chevron-up" d="M128.576 261.808c-13.88-13.676-36.179-13.676-49.957 0s-13.829 35.771 0 49.447l403.536 399.555c13.778 13.676 36.077 13.676 49.957 0l403.536-399.555c13.778-13.676 13.778-35.771 0-49.447-13.829-13.676-36.179-13.676-49.906 0l-378.634 364.397-378.532-364.397z" />
<glyph unicode="&#xe903;" glyph-name="chevron-down" d="M890.548 672.501c13.88 13.676 36.179 13.676 49.957 0s13.829-35.771 0-49.447l-403.536-399.555c-13.778-13.676-36.077-13.676-49.957 0l-403.536 399.555c-13.778 13.676-13.778 35.771 0 49.447 13.829 13.676 36.179 13.676 49.957 0l378.583-364.397 378.532 364.397z" />
<glyph unicode="&#xe904;" glyph-name="view" d="M691.509 664.162c77.161-32.659 145.132-79.148 206.634-135.157 17.581-16.017 33.955-33.376 50.394-50.581 18.373-19.23 18.695-40.084 0.948-59.975-57.065-63.949-123.648-116.372-198.59-158.238-53.624-29.96-110.558-51.664-171.539-61.643-75.999-12.44-149.866-3.476-221.945 22.753-72.475 26.371-136.977 66.126-196.448 114.271-31.325 25.36-61.339 52.227-87.55 82.882-16.646 19.47-15.742 41.661 1.516 60.692 6.4 7.052 12.547 14.364 19.324 21.044 65.718 64.771 138.649 119.608 223.413 157.97 58.913 26.662 120.392 42.991 203.55 44.76 47.594 0.641 110.124-13.312 170.294-38.779zM501.588 617.79c-43.062-1.314-84.186-11.1-124.015-26.497-62.303-24.086-117.669-59.592-168.366-102.454-15.305-12.939-30.186-26.371-45.456-39.749 1.35-1.728 1.88-2.613 2.605-3.299 54.007-50.931 112.489-95.61 180.377-127.314 43.643-20.377 89.124-34.656 137.235-38.811 59.2-5.112 115.818 6.676 170.355 29.193 61.974 25.587 116.999 61.997 167.316 105.686 12.535 10.885 24.935 21.913 38.418 33.771-13.431 11.814-25.813 22.851-38.351 33.714-57.741 50.034-121.209 90.769-194.147 115.721-40.741 13.937-82.593 21.366-125.971 20.039zM633.436 452.466c2.668-73.571-50.376-136.213-117.618-138.902-65.244-2.611-120.359 56.466-123.072 131.917-2.65 73.598 50.385 136.23 117.618 138.909 65.25 2.6 120.334-56.446 123.072-131.924z" />
<glyph unicode="&#xe905;" glyph-name="search" d="M450.56 857.6c192.283 0 348.16-155.877 348.16-348.16 0-81.383-27.923-156.244-74.711-215.525l185.594-185.592c15.996-15.996 15.996-41.93 0-57.926s-41.93-15.996-57.926 0v0l-185.592 185.594c-59.281-46.788-134.142-74.711-215.525-74.711-192.283 0-348.16 155.877-348.16 348.16s155.877 348.16 348.16 348.16zM450.56 775.68c-147.040 0-266.24-119.2-266.24-266.24s119.2-266.24 266.24-266.24c72.246 0 137.772 28.776 185.74 75.492 0.74 0.905 1.541 1.778 2.385 2.623s1.717 1.645 2.615 2.4c46.724 47.953 75.501 113.478 75.501 185.724 0 147.040-119.2 266.24-266.24 266.24z" />
<glyph unicode="&#xe906;" glyph-name="image" d="M798.72 857.6h-573.44c-69.632 0-122.88-53.248-122.88-122.88v-573.44c0-69.632 53.248-122.88 122.88-122.88h573.44c69.632 0 122.88 53.248 122.88 122.88v573.44c0 69.632-53.248 122.88-122.88 122.88zM184.32 734.72c0 24.576 16.384 40.96 40.96 40.96h573.44c24.576 0 40.96-16.384 40.96-40.96v-311.296l-135.168 135.168c-16.384 16.384-40.96 16.384-57.344 0l-434.176-434.176c-16.384 4.096-28.672 20.48-28.672 36.864v573.44zM675.84 472.576l163.84-163.84v-147.456c0-24.576-16.384-40.96-40.96-40.96h-475.136l352.256 352.256zM368.64 693.76c57.344 0 102.4-45.056 102.4-102.4s-45.056-102.4-102.4-102.4c-57.344 0-102.4 45.056-102.4 102.4s45.056 102.4 102.4 102.4zM368.64 611.84c-12.288 0-20.48-8.192-20.48-20.48s8.192-20.48 20.48-20.48c12.288 0 20.48 8.192 20.48 20.48s-8.192 20.48-20.48 20.48z" />
<glyph unicode="&#xe907;" glyph-name="home" d="M798.080 486.4l-55.68 55.642v136.358c0 21.12-17.28 38.4-38.4 38.4h-38.4c-21.12 0-38.4-17.28-38.4-38.4v-21.235l-76.8 76.723c-10.483 9.907-20.083 21.312-38.4 21.312s-27.917-11.405-38.4-21.312l-247.68-247.488c-11.981-12.48-21.12-21.581-21.12-38.4 0-21.619 16.589-38.4 38.4-38.4h38.4v-230.4c0-21.12 17.28-38.4 38.4-38.4h115.2v192c0 21.12 17.28 38.4 38.4 38.4h76.8c21.12 0 38.4-17.28 38.4-38.4v-192h115.2c21.12 0 38.4 17.28 38.4 38.4v230.4h38.4c21.811 0 38.4 16.781 38.4 38.4 0 16.819-9.139 25.92-21.12 38.4z" />
<glyph unicode="&#xe908;" glyph-name="download" d="M812.715 316.587c18.663 0 33.792-15.609 33.792-34.865v0-104.594c0-57.766-45.388-104.594-101.376-104.594v0h-473.088c-55.988 0-101.376 46.828-101.376 104.594v0 104.594c0 19.255 15.129 34.865 33.792 34.865s33.792-15.609 33.792-34.865v0-104.594c0-19.255 15.129-34.865 33.792-34.865v0h473.088c18.663 0 33.792 15.609 33.792 34.865v0 104.594c0 19.255 15.129 34.865 33.792 34.865zM508.587 823.467c20.736 0 37.547-15.234 37.547-34.027v0l-0.007-389.070 73.734 75.096c12.708 12.943 33.019 13.423 46.29 1.438l1.499-1.438c13.197-13.441 13.197-35.233 0-48.674v0l-124.308-126.626c-5.608-12.395-19.056-21.126-34.754-21.126l1.359 0.028c-0.318-0.013-0.635-0.021-0.953-0.025l-0.406-0.002c-0.138 0-0.275 0.001-0.412 0.002-0.319 0.005-0.633 0.013-0.947 0.026-15.11 0.48-27.949 9.061-33.395 21.098l-124.308 126.626c-13.197 13.441-13.197 35.233 0 48.674s34.593 13.441 47.789 0v0l73.723-75.085 0.003 389.059c0 18.166 15.708 33.007 35.487 33.976z" />
<glyph unicode="&#xe909;" glyph-name="compass" d="M514.334 77.899l0.092-59.979h-8.433l-0.031 59.979h8.372zM429.129 86.412l8.25-1.711-12.375-58.757-8.25 1.742 12.375 58.727zM590.273 87.182l12.283-58.727-8.219-1.772-12.283 58.696 8.219 1.803zM355.901 110.761l7.7-3.392-24.383-54.938-7.7 3.392 24.383 54.938zM664.494 112.537l24.383-54.693-7.669-3.453-24.383 54.693 7.669 3.453zM289.358 149.832l6.814-4.95-35.169-48.735-6.844 4.95 35.199 48.735zM258.124 693.078c135.349 139.101 357.857 142.121 496.956 6.775 139.086-135.333 142.107-357.874 6.744-496.958-135.354-139.075-357.83-142.084-496.958-6.741-134.774 131.198-141.777 344.238-18.874 483.823l-57.771 52.028 5.653 6.264 57.768-52.027c2.124 2.3 4.285 4.579 6.482 6.836zM730.942 152.353l35.291-48.307-6.814-4.98-35.291 48.307 6.814 4.98zM266.531 661.494c-113.017-128.613-106.494-324.734 17.604-445.539 126.533-123.090 327.89-121.98 453.012 1.303l-317.706 309.221-1.324-1.484-6.602 5.948-67.24-69.096-52.619 177.016zM232.41 201.901l5.683-6.233-44.549-40.394-5.683 6.233 44.549 40.394zM787.844 205.094l44.549-39.874-5.653-6.294-44.549 39.905 5.653 6.264zM735.813 680.052c-128.164 124.706-333.181 121.923-457.89-6.243-1.949-2.002-3.867-4.023-5.754-6.062l14.878-13.38-4.433 14.919 209.057-56.007-68.883-70.763 324-315.35c118.648 127.127 115.594 325.732-7.17 449.122zM187.646 264.746l4.247-7.272-51.913-30.28-4.247 7.272 51.913 30.28zM832.522 268.483l51.913-29.73-4.186-7.303-51.913 29.73 4.186 7.303zM156.948 335.616l2.658-8.005-57.046-18.883-2.628 8.005 57.016 18.883zM863.138 339.673l56.955-18.241-2.567-8.036-56.985 18.241 2.597 8.036zM141.643 411.42l0.947-8.403-59.613-6.63-0.947 8.372 59.613 6.661zM878.361 416.626l59.674-5.775-0.856-8.403-59.643 5.775 0.825 8.403zM82.714 493.542l59.643-5.805-0.794-8.372-59.643 5.775 0.794 8.403zM936.928 499.601l0.978-8.372-59.643-6.6-0.947 8.403 59.613 6.569zM102.392 582.549l57.016-18.18-2.567-8.067-57.046 18.211 2.597 8.036zM917.364 587.264l2.658-8.036-57.046-18.852-2.628 8.005 57.016 18.883zM139.657 664.559l51.974-29.699-4.186-7.333-51.974 29.699 4.186 7.333zM879.946 668.861l4.278-7.303-51.913-30.341-4.278 7.303 51.913 30.341zM826.408 740.692l5.653-6.233-44.519-40.363-5.683 6.233 44.549 40.363zM260.493 796.956l35.291-48.338-6.783-4.95-35.322 48.338 6.814 4.95zM759.004 799.862l6.814-4.95-35.23-48.735-6.844 4.95 35.26 48.735zM338.729 841.591l24.444-54.632-7.7-3.453-24.444 54.663 7.7 3.422zM680.676 843.602l7.7-3.422-24.322-54.938-7.73 3.422 24.352 54.938zM425.636 869.259l12.283-58.666-8.25-1.742-12.283 58.696 8.25 1.711zM594.957 870.038l8.28-1.711-12.436-58.818-8.28 1.803 12.436 58.727zM513.882 878.080l0.092-60.010-8.494-0.031-0.031 60.010 8.433 0.031z" />
<glyph unicode="&#xe90a;" glyph-name="menu" d="M917.92 265.142c18.999 0 34.4-16.374 34.4-36.571s-15.401-36.571-34.4-36.571h-811.84c-18.999 0-34.4 16.374-34.4 36.571s15.401 36.571 34.4 36.571h811.84zM917.92 484.57c18.999 0 34.4-16.374 34.4-36.571s-15.401-36.571-34.4-36.571h-811.84c-18.999 0-34.4 16.374-34.4 36.571s15.401 36.571 34.4 36.571h811.84zM917.92 703.999c18.999 0 34.4-16.374 34.4-36.571s-15.401-36.571-34.4-36.571h-811.84c-18.999 0-34.4 16.374-34.4 36.571s15.401 36.571 34.4 36.571h811.84z" />
<glyph unicode="&#xe90b;" glyph-name="close" d="M808.208 744.5c13.639-13.639 14.33-35.062 1.544-47.849l-248.508-248.498 248.8-248.805c12.787-12.787 12.096-34.21-1.544-47.849s-35.062-14.33-47.849-1.544l-248.805 248.8-248.498-248.508c-12.787-12.787-34.21-12.096-47.849 1.544s-14.33 35.062-1.544 47.849l248.503 248.513-248.211 248.206c-12.787 12.787-12.096 34.21 1.544 47.849s35.062 14.33 47.849 1.544l248.206-248.211 248.513 248.503c12.787 12.787 34.21 12.096 47.849-1.544z" />
<glyph unicode="&#xe90c;" glyph-name="check" d="M193.922 463.67c-17.033 17.033-44.648 17.033-61.681 0s-17.033-44.648 0-61.681l218.074-218.074c17.033-17.033 44.648-17.033 61.681 0l479.763 479.763c17.033 17.033 17.033 44.648 0 61.681s-44.648 17.033-61.681 0l-448.923-448.923-187.234 187.234z" />
<glyph unicode="&#xe90d;" glyph-name="availability" d="M0 960h1024v-1024h-1024v1024z" />
<glyph unicode="&#xe90e;" glyph-name="you" horiz-adv-x="828" d="M211.067 960h-211.067v-655.725c0-220.839 164.776-368.275 413.863-368.275 248.112 0 413.826 147.436 413.826 368.257v655.743h-616.622z" />
<glyph unicode="&#xe90f;" glyph-name="built" d="M704.023-31.914v62.615l-85.301 97.535v-160.151c0-17.683-14.335-32.018-32.018-32.018s-32.018 14.335-32.018 32.018v0 607.97h-362.639v-226.113c0.003-0.31 0.005-0.677 0.005-1.044 0-35.506-16.744-67.102-42.767-87.321l-0.25-0.187c-6.324-5.055-10.34-12.769-10.34-21.421 0-0.242 0.003-0.483 0.009-0.723l-0.001 0.035c-0.019-0.36-0.029-0.782-0.029-1.206 0-12.491 9.224-22.828 21.233-24.571l0.134-0.016c12.105 1.386 21.419 11.573 21.419 23.935 0 0.696-0.030 1.386-0.087 2.067l0.006-0.089c0 17.676 14.33 32.006 32.006 32.006s32.006-14.33 32.006-32.006v0c0.016-0.634 0.026-1.38 0.026-2.129 0-47.626-37.928-86.393-85.226-87.745l-0.125-0.003c-47.561 1.952-85.378 40.981-85.378 88.843 0 0.321 0.002 0.642 0.005 0.962v-0.049c-0.001 0.158-0.002 0.344-0.002 0.531 0 29.625 14.077 55.963 35.907 72.688l0.219 0.161c10.562 8.532 17.26 21.482 17.26 35.997 0 0.443-0.006 0.884-0.019 1.324l0.001-0.065v226.137h-96.018c-17.671 0.014-31.992 14.335-32.006 32.005v74.658c0.016 16.169 12.019 29.529 27.601 31.674l0.167 0.019 40.941 5.515c1.246 0.765 2.703 1.507 4.219 2.137l0.213 0.078 575.482 235.289c3.721 1.639 8.059 2.593 12.62 2.593 6.232 0 12.049-1.781 16.968-4.863l-0.134 0.078 0.506-0.313c1.135-0.714 2.102-1.404 3.026-2.145l-0.064 0.049 277.241-223.97c1.672-1.354 3.155-2.814 4.487-4.405l0.041-0.050 37.569-10.958c13.418-4.020 23.032-16.25 23.047-30.728v-202.635c0-17.668-14.316-31.992-31.981-32.006h-117.284c-17.666 0.014-31.982 14.338-31.982 32.006v0 95.97h-74.657v-148.759c0-0.409 0-0.843 0-1.252v-190.88c0-0.409 0-0.843 0-1.252v-190.736c0-0.409 0-0.843 0-1.252v-73.934c0-17.676-14.33-32.006-32.006-32.006s-32.006 14.33-32.006 32.006v0zM704.023 127.899v94.862l-85.301 97.487v-94.838zM704.023 319.887v94.862l-85.301 97.487v-94.838zM704.023 511.899v64.157h-56.161zM319.397 753.691l263.080 35.378c0.159 0.031 0.343 0.048 0.53 0.048s0.371-0.018 0.548-0.051l-0.018 0.003c0.141-0.016 0.304-0.025 0.47-0.025s0.329 0.009 0.489 0.027l-0.020-0.002c0.621 0.198 1.377 0.374 2.151 0.494l0.089 0.011h42.651v90.816zM744.988 788.105l60.568-17.677-112.202 90.672v-71.694h42.675c1.986-0.215 3.798-0.622 5.526-1.209l-0.18 0.053c0.223-0.015 0.484-0.024 0.747-0.024s0.523 0.009 0.782 0.026l-0.035-0.002h0.771c0.058 0.003 0.126 0.004 0.195 0.004 0.41 0 0.808-0.054 1.186-0.156l-0.032 0.007z" />
<glyph unicode="&#xe910;" glyph-name="logo-shape" horiz-adv-x="767" d="M767.345 703.997v0c0 0.030 0 0.066 0 0.102 0 141.295-114.514 255.844-255.795 255.9h-511.55v-1024h511.544c140.888 0.658 254.845 115.021 254.845 256s-113.957 255.342-254.782 256h-0.062c141.286 0.052 255.801 114.599 255.801 255.893 0 0.037 0 0.073 0 0.11v-0.005z" />
<glyph unicode="&#xe911;" glyph-name="heart" horiz-adv-x="1147" d="M842.24 960c-0.269 0.001-0.587 0.002-0.905 0.002-64.079 0-122.936-22.359-169.194-59.701l0.513 0.401c-40.473-32.961-73.719-73.056-98.177-118.577l-1.021-2.079c-25.492 47.599-58.749 87.695-98.525 120.096l-0.709 0.56c-45.738 36.941-104.589 59.3-168.662 59.3-0.319 0-0.637-0.001-0.955-0.002h0.049c-173.704 0-304.655-143.649-304.655-334.151 0-205.909 163.409-346.65 410.77-559.928 41.977-36.215 89.607-77.234 139.079-121.017 6.244-5.567 14.524-8.969 23.598-8.969s17.354 3.402 23.633 9l-0.035-0.031c49.49 43.783 97.084 84.802 139.079 121.017 247.38 213.26 410.825 354.019 410.825 559.928 0 190.502-131.041 334.151-304.709 334.151z" />
<glyph unicode="&#xe912;" glyph-name="gallery" horiz-adv-x="1029" d="M274.024 312.407c0-0.010 0-0.022 0-0.034 0-57.030 46.232-103.262 103.262-103.262s103.262 46.232 103.262 103.262c0 57.030-46.232 103.262-103.262 103.262-0.012 0-0.024 0-0.036 0h0.002c-57.011 0-103.228-46.217-103.228-103.228v0zM274.024 39.228c0-0.010 0-0.022 0-0.034 0-57.030 46.232-103.262 103.262-103.262s103.262 46.232 103.262 103.262c0 57.030-46.232 103.262-103.262 103.262-0.012 0-0.024 0-0.036 0h0.002c-57.011 0-103.228-46.217-103.228-103.228v0zM822.073 312.407c0-0.010 0-0.022 0-0.034 0-57.030 46.232-103.262 103.262-103.262s103.262 46.232 103.262 103.262c0 57.030-46.232 103.262-103.262 103.262-0.012 0-0.024 0-0.036 0h0.002c-57.011 0-103.228-46.217-103.228-103.228v0zM822.073 39.228c0-0.010 0-0.022 0-0.034 0-57.030 46.232-103.262 103.262-103.262s103.262 46.232 103.262 103.262c0 57.030-46.232 103.262-103.262 103.262-0.012 0-0.024 0-0.036 0h0.002c-57.011 0-103.228-46.217-103.228-103.228v0zM274.024 856.772c0-0.010 0-0.022 0-0.034 0-57.030 46.232-103.262 103.262-103.262s103.262 46.232 103.262 103.262c0 57.030-46.232 103.262-103.262 103.262-0.012 0-0.024 0-0.036 0h0.002c-57.011 0-103.228-46.217-103.228-103.228v0zM274.024 583.593c0-0.010 0-0.022 0-0.034 0-57.030 46.232-103.262 103.262-103.262s103.262 46.232 103.262 103.262c0 57.030-46.232 103.262-103.262 103.262-0.012 0-0.024 0-0.036 0h0.002c-57.011 0-103.228-46.217-103.228-103.228v0zM822.073 856.772c0-0.010 0-0.022 0-0.034 0-57.030 46.232-103.262 103.262-103.262s103.262 46.232 103.262 103.262c0 57.030-46.232 103.262-103.262 103.262-0.012 0-0.024 0-0.036 0h0.002c-57.011 0-103.228-46.217-103.228-103.228v0zM822.073 583.593c0-0.010 0-0.022 0-0.034 0-57.030 46.232-103.262 103.262-103.262s103.262 46.232 103.262 103.262c0 57.030-46.232 103.262-103.262 103.262-0.012 0-0.024 0-0.036 0h0.002c-57.011 0-103.228-46.217-103.228-103.228v0zM0 312.407c0-0.010 0-0.022 0-0.034 0-57.030 46.232-103.262 103.262-103.262s103.262 46.232 103.262 103.262c0 57.030-46.232 103.262-103.262 103.262-0.012 0-0.024 0-0.036 0h0.002c-57.011 0-103.228-46.217-103.228-103.228v0zM0 39.228c0-0.010 0-0.022 0-0.034 0-57.030 46.232-103.262 103.262-103.262s103.262 46.232 103.262 103.262c0 57.030-46.232 103.262-103.262 103.262-0.012 0-0.024 0-0.036 0h0.002c-57.011 0-103.228-46.217-103.228-103.228v0zM548.049 312.407c0-0.010 0-0.022 0-0.034 0-57.030 46.232-103.262 103.262-103.262s103.262 46.232 103.262 103.262c0 57.030-46.232 103.262-103.262 103.262-0.012 0-0.024 0-0.036 0h0.002c-57.011 0-103.228-46.217-103.228-103.228v0zM548.049 39.228c0-0.010 0-0.022 0-0.034 0-57.030 46.232-103.262 103.262-103.262s103.262 46.232 103.262 103.262c0 57.030-46.232 103.262-103.262 103.262-0.012 0-0.024 0-0.036 0h0.002c-57.011 0-103.228-46.217-103.228-103.228v0zM0 856.772c0-0.010 0-0.022 0-0.034 0-57.030 46.232-103.262 103.262-103.262s103.262 46.232 103.262 103.262c0 57.030-46.232 103.262-103.262 103.262-0.012 0-0.024 0-0.036 0h0.002c-57.011 0-103.228-46.217-103.228-103.228v0zM0 583.593c0-0.010 0-0.022 0-0.034 0-57.030 46.232-103.262 103.262-103.262s103.262 46.232 103.262 103.262c0 57.030-46.232 103.262-103.262 103.262-0.012 0-0.024 0-0.036 0h0.002c-57.011 0-103.228-46.217-103.228-103.228v0zM548.049 856.772c0-0.010 0-0.022 0-0.034 0-57.030 46.232-103.262 103.262-103.262s103.262 46.232 103.262 103.262c0 57.030-46.232 103.262-103.262 103.262-0.012 0-0.024 0-0.036 0h0.002c-57.011 0-103.228-46.217-103.228-103.228v0zM548.049 583.593c0-0.010 0-0.022 0-0.034 0-57.030 46.232-103.262 103.262-103.262s103.262 46.232 103.262 103.262c0 57.030-46.232 103.262-103.262 103.262-0.012 0-0.024 0-0.036 0h0.002c-57.011 0-103.228-46.217-103.228-103.228v0z" />
<glyph unicode="&#xe913;" glyph-name="graph-up" horiz-adv-x="1166" d="M1166.044-64h-258.384v717.667h258.384v-717.667zM807.211-64h-258.432v478.501h258.384v-478.477zM448.377-64h-258.456v363.65h258.408v-363.65zM54.528 263.237v0l-54.572 53.753 452.178 459.451 166.749-173.107 286.585 274.568-82.098 82.098h214.554v-214.337l-78.293 78.1-343.011-328.561-165.063 171.469-397.005-403.435z" />
<glyph unicode="&#xe914;" glyph-name="connection" horiz-adv-x="1253" d="M427.452-23.758c-150.26 64.645-261.624 194.82-299.152 353.535l-0.693 3.476h-127.607v247.159h131.996c60.455 220.4 258.999 379.669 494.742 379.669s434.287-159.268 493.899-376.073l0.843-3.595h132.014v-247.159h-127.643c-54.254-229.271-257.192-397.241-499.361-397.241-71.871 0-140.287 14.795-202.368 41.504l3.331-1.275zM626.747 152.273c121.844 0.147 226.44 73.836 271.798 179.057l0.738 1.923h-545.071c46.096-107.145 150.692-180.833 272.517-180.98h0.019zM891.155 580.339c-49.645 97.607-149.34 163.312-264.381 163.312s-214.736-65.705-263.605-161.635l-0.776-1.677z" />
<glyph unicode="&#xe915;" glyph-name="blob" horiz-adv-x="1054" d="M267.146 626.018c267.535 8.222 356.894 60.235 386.018 179.682 11.131 49.273 39.36 90.627 77.988 118.441l0.589 0.403c32.312 22.184 72.27 35.429 115.322 35.429 67.25 0 126.952-32.319 164.42-82.272l0.382-0.532c66.289-88.335 53.128-213.655-30.057-285.907l-0.301-0.241c-15.661-13.252-34.816-21.474-55.115-23.703-107.43-13.252-234.406-112.008-249.103-377.555-47.224-167.665-209.257-274.492-379.844-250.338-170.586 24.094-297.502 171.791-297.502 346.172 0 165.828 110.17 335.601 267.204 340.42z" />
<glyph unicode="&#xe916;" glyph-name="tour" d="M425.164 129.56c-4.723 4.647-7.65 11.108-7.65 18.253s2.927 13.606 7.647 18.249l0.003 0.003 26.931 26.658c-89.572 4.23-173.437 23.868-250.591 56.314l4.831-1.803c-89.020 39.356-138.069 94.174-138.069 154.402 0 34.901 16.794 86.374 96.751 133.308 3.802 2.271 8.385 3.614 13.283 3.614 9.469 0 17.766-5.021 22.373-12.545l0.065-0.115c2.298-3.764 3.659-8.317 3.659-13.188 0-9.428-5.097-17.666-12.685-22.108l-0.121-0.065c-45.926-26.965-71.202-58.539-71.202-88.9 0-38.059 39.083-77.141 107.196-107.247 64.773-27.415 139.86-45.255 218.548-49.588l1.732-0.076-22.699 22.494c-4.718 4.646-7.642 11.104-7.642 18.244s2.923 13.598 7.638 18.241l0.003 0.003c4.732 4.677 11.241 7.566 18.423 7.566s13.691-2.889 18.426-7.568l-0.003 0.003 69.513-68.83c4.718-4.646 7.642-11.104 7.642-18.244s-2.923-13.598-7.638-18.241l-0.003-0.003-69.513-68.847c-4.734-4.673-11.242-7.559-18.423-7.559s-13.689 2.886-18.426 7.562l0.003-0.003zM593.714 216.72c-0.107 0.879-0.167 1.897-0.167 2.929 0 13.296 10.089 24.235 23.028 25.58l0.111 0.009c78.374 7.835 150.052 29.669 214.841 63.007l-3.351-1.567c48.009 26.88 74.462 58.47 74.462 88.969 0 33.604-30.942 61.099-56.9 78.251-6.95 4.491-11.485 12.2-11.485 20.968 0 5.441 1.746 10.474 4.709 14.569l-0.050-0.073c5.031 6.726 12.977 11.034 21.928 11.034 5.578 0 10.765-1.672 15.088-4.543l-0.101 0.063c52.275-34.492 79.906-76.083 79.906-120.235 0-50.108-34.867-96.102-100.83-133.018-67.194-35.278-145.671-59.459-228.82-67.793l-2.689-0.218c-1.017-0.13-2.195-0.205-3.389-0.205-0.009 0-0.017 0-0.026 0h0.001c-0.108-0.002-0.236-0.003-0.364-0.003-13.084 0-23.928 9.592-25.883 22.127l-0.019 0.147zM653.209 392.66c-14.542 13.11-23.644 32.014-23.644 53.043 0 1.85 0.070 3.683 0.209 5.498l-0.015-0.241v84.668c-0.121 1.56-0.191 3.378-0.191 5.212 0 21.044 9.114 39.959 23.61 53.014l0.064 0.057c14.554 10.757 32.852 17.217 52.66 17.217 1.822 0 3.631-0.055 5.426-0.162l-0.247 0.012c1.548 0.095 3.357 0.15 5.179 0.15 19.869 0 38.229-6.459 53.096-17.391l-0.249 0.175c14.658-13.079 23.843-32.024 23.843-53.114 0-1.819-0.068-3.622-0.203-5.406l0.014 0.238v-84.668c0.121-1.552 0.189-3.36 0.189-5.185 0-21.091-9.185-40.036-23.774-53.054l-0.070-0.061c-14.609-10.758-32.961-17.218-52.822-17.218-1.831 0-3.649 0.055-5.453 0.163l0.248-0.012c-1.565-0.098-3.394-0.154-5.237-0.154-19.8 0-38.091 6.462-52.879 17.392l0.243-0.171zM681.522 535.627v-84.668c0-21.197 9.933-31.949 29.542-31.949s29.867 11.042 29.867 31.949v84.668c0 20.89-10.24 31.932-29.867 31.932s-29.542-10.752-29.542-31.932zM454.16 392.66c-14.658 13.079-23.844 32.025-23.844 53.115 0 1.824 0.069 3.633 0.204 5.423l-0.014-0.238v84.668c-0.116 1.508-0.182 3.266-0.182 5.040 0 21.274 9.494 40.33 24.475 53.164l0.095 0.079c15.259 10.778 34.245 17.227 54.737 17.227 1.95 0 3.886-0.058 5.806-0.173l-0.264 0.013c1.387 0.080 3.010 0.125 4.644 0.125 21.212 0 40.639-7.64 55.681-20.319l-0.13 0.107c10.935-9.933 17.857-24.116 18.141-39.92l0.001-0.050c0-14.49-6.827-20.122-24.235-20.122-18.091 0-26.88 5.939-26.88 18.193 0 12.8-14.524 18.517-28.894 18.517-1.057 0.141-2.279 0.222-3.52 0.222-15.458 0-27.989-12.531-27.989-27.989 0-1.47 0.113-2.913 0.332-4.322l-0.020 0.157v-28.757c9.544 8.861 22.375 14.298 36.475 14.298 1.766 0 3.511-0.085 5.233-0.252l-0.219 0.017c1.337 0.084 2.9 0.132 4.473 0.132 16.756 0 32.242-5.44 44.787-14.65l-0.211 0.148c12.855-11.814 20.882-28.707 20.882-47.475 0-1.846-0.078-3.673-0.23-5.48l0.016 0.236v-2.867c0.121-1.555 0.19-3.367 0.19-5.196 0-21.043-9.114-39.958-23.609-53.013l-0.064-0.057c-14.55-10.757-32.845-17.218-52.649-17.218-1.826 0-3.639 0.055-5.437 0.163l0.247-0.012c-1.556-0.096-3.374-0.151-5.205-0.151-19.861 0-38.213 6.459-53.070 17.392l0.248-0.174zM482.303 453.161v-5.751c0-20.975 10.052-31.625 29.867-31.625s29.559 10.65 29.559 31.625v2.867c0 22.016-9.506 32.273-29.884 32.273-1.103 0.165-2.376 0.259-3.671 0.259-14.421 0-26.112-11.691-26.112-26.112 0-1.247 0.087-2.474 0.256-3.674l-0.016 0.138zM231.269 435.941c0 14.37 6.315 18.21 24.576 18.21 21.248 0 26.556-4.489 26.556-16.623 0-15.019 14.609-18.517 29.559-18.517 22.562 0 30.532 7.987 30.532 28.757v6.076c0 21.402-13.653 25.6-31.881 25.6-11.281 0-14.95 9.574-14.95 19.149s3.652 19.166 14.95 19.166c12.612 0 25.89 1.604 25.89 27.477 0 18.517-10.957 23.006-24.576 23.006-16.265 0-24.559-3.84-24.559-16.299 0-10.854-4.983-18.21-24.235-18.21-23.893 0-26.88 4.813-26.88 20.139 0 24.917 18.586 57.19 75.674 57.19 42.155 0 74.035-14.694 74.035-57.839 0.175-1.652 0.275-3.569 0.275-5.51 0-19.651-10.228-36.912-25.651-46.752l-0.224-0.133c19.734-5.662 33.931-23.547 33.931-44.748 0-0.787-0.020-1.569-0.058-2.346l0.004 0.109v-6.076c0-52.395-37.547-72.209-83.985-72.209-57.071 0-78.985 33.553-78.985 60.382zM702.173 502.501c0 10.001 8.107 18.108 18.108 18.108s18.108-8.107 18.108-18.108v0c0-10.001-8.107-18.108-18.108-18.108s-18.108 8.107-18.108 18.108v0zM774.604 692.521c0 45.008 36.486 81.493 81.493 81.493s81.493-36.486 81.493-81.493c0-45.008-36.486-81.493-81.493-81.493v0c-44.984 0.058-81.435 36.509-81.493 81.488v0.006zM828.927 692.521c0-15.006 12.164-27.17 27.17-27.17s27.17 12.164 27.17 27.17c0 15.006-12.164 27.17-27.17 27.17v0c-14.991-0.029-27.134-12.178-27.153-27.168v-0.002z" />
<glyph unicode="&#xe917;" glyph-name="film" d="M802.441 38.4h-580.881c-0.455-0.006-0.991-0.010-1.529-0.010-64.971 0-117.641 52.669-117.641 117.641 0 0.538 0.004 1.074 0.011 1.61l-0.001-0.081v580.881c-0.006 0.455-0.010 0.991-0.010 1.529 0 64.971 52.669 117.641 117.641 117.641 0.538 0 1.074-0.004 1.61-0.011l-0.081 0.001h580.881c0.455 0.006 0.991 0.010 1.529 0.010 64.971 0 117.641-52.669 117.641-117.641 0-0.538-0.004-1.074-0.011-1.61l0.001 0.081v-580.881c0.006-0.46 0.010-1.003 0.010-1.546 0-64.962-52.662-117.623-117.623-117.623-0.544 0-1.086 0.004-1.628 0.011l0.082-0.001zM735.42 224.58v-111.718h67.038c0.445-0.016 0.968-0.026 1.494-0.026 23.866 0 43.213 19.347 43.213 43.213 0 0.525-0.009 1.048-0.028 1.569l0.002-0.075v67.038zM363.059 410.761v-297.899h297.899v297.899zM176.862 224.58v-67.038c-0.016-0.44-0.025-0.957-0.025-1.476 0-23.875 19.355-43.23 43.23-43.23 0.525 0 1.048 0.009 1.568 0.028l-0.075-0.002h67.021v111.718zM735.42 410.761v-111.718h111.718v111.718zM176.862 410.761v-111.718h111.718v111.718zM735.42 596.941v-111.701h111.718v111.701zM363.059 783.138v-297.899h297.899v297.899zM176.862 596.941v-111.701h111.718v111.701zM735.42 783.138v-111.718h111.718v67.021c0.016 0.445 0.026 0.968 0.026 1.493 0 23.875-19.355 43.23-43.23 43.23-0.519 0-1.036-0.009-1.551-0.027l0.075 0.002zM221.559 783.138c-0.445 0.016-0.968 0.026-1.494 0.026-23.875 0-43.23-19.355-43.23-43.23 0-0.525 0.009-1.048 0.028-1.569l-0.002 0.075v-67.021h111.718v111.718z" />
<glyph unicode="&#xe918;" glyph-name="user" d="M815.41 72.537c-0.113-0.001-0.246-0.002-0.38-0.002-20.539 0-37.226 16.492-37.542 36.956v73.98c-0.891 61.46-50.922 110.941-112.509 110.941-0.448 0-0.895-0.003-1.342-0.008l0.068 0.001h-303.411c-0.379 0.005-0.826 0.007-1.274 0.007-61.588 0-111.619-49.48-112.508-110.857l-0.001-0.084v-73.95c-0.316-20.494-17.003-36.985-37.542-36.985-0.133 0-0.267 0.001-0.4 0.002h0.020c-0.113-0.001-0.246-0.002-0.38-0.002-20.539 0-37.226 16.492-37.542 36.956v73.98c0 0.032 0 0.070 0 0.108 0 51.275 21.276 97.58 55.48 130.57l0.055 0.053c34.356 33.495 81.362 54.155 133.194 54.155 0.316 0 0.632-0.001 0.948-0.002h303.362c0.264 0.001 0.576 0.002 0.889 0.002 51.83 0 98.834-20.66 133.227-54.193l-0.040 0.039c34.27-33.044 55.552-79.356 55.552-130.639 0-0.032 0-0.065 0-0.097v0.005-73.95c-0.316-20.494-17.003-36.985-37.542-36.985-0.133 0-0.267 0.001-0.4 0.002h0.020zM523.382 436.621c-0.004 0-0.008 0-0.012 0-106.821 0-193.417 86.596-193.417 193.417 0 53.414 21.651 101.77 56.656 136.772v0c35.002 35.005 83.359 56.655 136.772 56.655 106.822 0 193.419-86.597 193.419-193.419 0-53.409-21.647-101.762-56.647-136.764v0c-34.813-35.001-83.007-56.662-136.261-56.662-0.18 0-0.36 0-0.54 0.001h0.028zM523.382 755.204c-0.005 0-0.011 0-0.017 0-69.128 0-125.167-56.039-125.167-125.167s56.039-125.167 125.167-125.167c69.128 0 125.167 56.039 125.167 125.167v0c-0.078 69.091-56.061 125.080-125.141 125.167h-0.008z" />
<glyph unicode="&#xe919;" glyph-name="email" d="M512 55.467c-216.79 0-392.533 175.743-392.533 392.533s175.743 392.533 392.533 392.533c216.79 0 392.533-175.743 392.533-392.533v0-35.686c-0.019-78.822-63.921-142.712-142.746-142.712-47.799 0-90.111 23.494-116.018 59.564l-0.291 0.427c-32.835-36.888-80.448-60.009-133.461-60.009-98.536 0-178.415 79.879-178.415 178.415s79.879 178.415 178.415 178.415c98.535 0 178.414-79.878 178.415-178.412v0-35.686c0-39.418 31.955-71.373 71.373-71.373s71.373 31.955 71.373 71.373v0 35.686c-0.088 177.343-143.834 321.083-321.17 321.161h-0.007c-125.439-0.544-233.957-72.439-287.118-177.172l-0.848-1.841c-20.921-41.463-33.173-90.377-33.173-142.152 0-177.372 143.788-321.161 321.161-321.161 73.792 0 141.772 24.887 196.003 66.726l-0.748-0.554c5.852 4.366 13.227 6.99 21.215 6.99 19.709 0 35.686-15.977 35.686-35.686 0-11.299-5.251-21.371-13.446-27.91l-0.072-0.055c-65.286-50.458-148.294-80.879-238.407-80.879-0.089 0-0.178 0-0.267 0h0.014zM512 555.059c-59.127 0-107.059-47.932-107.059-107.059s47.932-107.059 107.059-107.059c59.127 0 107.059 47.932 107.059 107.059v0c-0.068 59.1-47.959 106.991-107.053 107.059h-0.007z" />
<glyph unicode="&#xe91a;" glyph-name="download-files" d="M904.544 38.4h-785.088c-28.277 0-51.2 22.923-51.2 51.2v0 170.688c0 28.277 22.923 51.2 51.2 51.2v0h248l72-72.576c18.615-18.459 44.247-29.865 72.544-29.865s53.929 11.406 72.551 29.872l72.505 72.569h247.488c28.277 0 51.2-22.923 51.2-51.2v0-170.688c0-28.277-22.923-51.2-51.2-51.2v0zM853.344 174.912c-18.84 0-34.112-15.272-34.112-34.112s15.272-34.112 34.112-34.112c18.817 0 34.076 15.236 34.112 34.045v0.003c0 0 0 0 0 0 0 18.852-15.265 34.14-34.109 34.176h-0.003zM716.832 174.912c-18.84 0-34.112-15.272-34.112-34.112s15.272-34.112 34.112-34.112c18.817 0 34.076 15.236 34.112 34.045v0.003c0 18.875-15.301 34.176-34.176 34.176v0zM512.032 277.312c-0.121-0.002-0.263-0.003-0.406-0.003-9.277 0-17.649 3.878-23.582 10.101l-0.012 0.013-238.976 238.976c-6.27 6.14-10.156 14.691-10.156 24.151 0 4.753 0.981 9.277 2.753 13.38l-0.084-0.219c5.387 12.31 17.446 20.763 31.483 20.8h136.517v238.976c0.036 18.847 15.324 34.112 34.176 34.112 0 0 0 0 0 0h136.512c0 0 0 0 0 0 18.852 0 34.14-15.265 34.176-34.109v-238.979h136.512c14.042-0.037 26.101-8.49 31.402-20.579l0.086-0.221c1.694-3.888 2.68-8.417 2.68-13.177 0-9.457-3.892-18.005-10.162-24.129l-0.007-0.006-238.976-238.976c-5.956-6.237-14.336-10.114-23.621-10.114-0.133 0-0.266 0.001-0.399 0.002h0.020z" />
<glyph unicode="&#xe91b;" glyph-name="check-thick" horiz-adv-x="1037" d="M353.966 120.776l-180.217 222.229c-10.823 13.284-17.379 30.418-17.379 49.084 0 43.081 34.924 78.005 78.005 78.005 24.416 0 46.211-11.217 60.515-28.779l0.112-0.142 114.39-141.324 329.34 470.872c14.287 20.229 37.571 33.278 63.903 33.278 43.075 0 77.994-34.919 77.994-77.994 0-16.743-5.276-32.254-14.255-44.961l0.164 0.245-383.103-547.721c-13.357-24.912-39.216-41.568-68.965-41.568-24.349 0-46.091 11.157-60.394 28.638l-0.11 0.139z" />
<glyph unicode="&#xe91c;" glyph-name="checked-checkbox" d="M665.837 72.542h-443.712c-84.831 0-153.6 68.769-153.6 153.6v443.712c0 84.831 68.769 153.6 153.6 153.6v0h443.712c0.293 0.002 0.639 0.003 0.986 0.003 22.263 0 43.381-4.906 62.33-13.697l-0.916 0.381c4.894-2.373 8.461-6.824 9.58-12.174l0.020-0.114c0.218-1.012 0.343-2.175 0.343-3.367 0-4.736-1.971-9.012-5.137-12.051l-0.006-0.005-26.112-26.112c-3.169-3.143-7.48-5.138-12.256-5.311l-0.032-0.001c-1.754 0.103-3.389 0.493-4.898 1.125l0.098-0.037c-7.193 2.013-15.456 3.18-23.989 3.2h-443.723c-47.132-0.073-85.312-38.298-85.312-85.44v0-443.712c0.073-47.087 38.225-85.239 85.305-85.312h443.783c47.087 0.073 85.239 38.225 85.312 85.305v135.495c0 0.029 0 0.064 0 0.099 0 4.533 1.834 8.638 4.801 11.614v0l34.112 34.112c3.102 3.247 7.454 5.276 12.281 5.312h0.007c2.343-0.026 4.542-0.615 6.477-1.637l-0.077 0.037c6.277-2.472 10.647-8.464 10.688-15.483v-169.605c-0.037-84.803-68.792-153.536-153.6-153.536-0.023 0-0.045 0-0.068 0h0.004zM478.125 209.566c-11.902 0.046-22.654 4.934-30.395 12.795l-229.317 229.381c-7.886 7.731-12.774 18.495-12.774 30.4s4.888 22.669 12.767 30.393l58.695 58.695c7.724 7.902 18.49 12.802 30.4 12.802s22.676-4.9 30.392-12.794l140.232-140.36 345.088 345.088c7.724 7.902 18.49 12.802 30.4 12.802s22.676-4.9 30.392-12.794l58.696-58.696c7.886-7.731 12.774-18.495 12.774-30.4s-4.888-22.669-12.767-30.393l-434.183-434.119c-7.746-7.866-18.498-12.754-30.391-12.8h-0.009z" />
<glyph unicode="&#xe91d;" glyph-name="loading" d="M1008.058 432.003c-1.278 66.862-15.784 133.516-42.576 194.462-26.704 61-65.462 116.258-113.042 161.92-47.552 45.696-103.944 81.82-164.984 105.652-61.004 23.924-126.596 35.352-191.398 33.966-64.81-1.282-129.332-15.374-188.334-41.356-59.048-25.896-112.542-63.47-156.734-109.576-44.224-46.082-79.16-100.708-102.186-159.798-23.114-59.062-34.128-122.52-32.746-185.27 1.286-62.76 14.964-125.148 40.134-182.206 25.088-57.1 61.476-108.828 106.11-151.548 44.61-42.754 97.472-76.504 154.614-98.72 57.118-22.304 118.446-32.902 179.142-31.526 60.708 1.29 120.962 14.554 176.076 38.914 55.15 24.282 105.116 59.48 146.366 102.644 41.282 43.14 73.844 94.236 95.254 149.43 13.034 33.458 21.88 68.4 26.542 103.798 1.246-0.072 2.498-0.12 3.762-0.12 35.346 0 64 28.652 64 64 0 1.796-0.094 3.572-0.238 5.332h0.238zM906.364 262.055c-23.472-53.202-57.484-101.4-99.178-141.18-41.67-39.81-91-71.186-144.244-91.79-53.228-20.678-110.29-30.452-166.884-29.082-56.604 1.298-112.596 13.736-163.82 36.474-51.25 22.666-97.684 55.49-135.994 95.712-38.338 40.198-68.528 87.764-88.322 139.058-19.87 51.284-29.228 106.214-27.864 160.756 1.302 54.552 13.328 108.412 35.254 157.69 21.858 49.3 53.498 93.97 92.246 130.81 38.73 36.868 84.53 65.87 133.874 84.856 49.338 19.060 102.136 28.006 154.626 26.644 52.5-1.306 104.228-12.918 151.562-34.034 47.352-21.050 90.256-51.502 125.624-88.782 35.396-37.258 63.21-81.294 81.39-128.688 18.248-47.392 26.782-98.058 25.424-148.496h0.238c-0.144-1.76-0.238-3.536-0.238-5.332 0-33.012 24.992-60.174 57.086-63.624-6.224-34.822-16.53-68.818-30.78-100.992z" />
<glyph unicode="&#xe91e;" glyph-name="occupier" horiz-adv-x="979" d="M21.301-64.012c-11.708 0-21.2 9.491-21.2 21.2v0c1.925 268.83 220.299 486.015 489.399 486.015s487.474-217.185 489.398-485.832l0.001-0.183c0-11.708-9.491-21.2-21.2-21.2v0zM255.418 725.918c0 0.007 0 0.015 0 0.024 0 129.273 104.797 234.070 234.070 234.070s234.070-104.797 234.070-234.070c0-129.273-104.797-234.070-234.070-234.070v0c-129.265 0-234.056 104.783-234.070 234.045v0.001z" />
<glyph unicode="&#xe91f;" glyph-name="scale" horiz-adv-x="1167" d="M1159.534 515.512v-33.744c0-130.286-105.996-236.282-236.258-236.282-130.286 0-236.258 105.996-236.258 236.282v33.744h76.3l114.236 371.26h-260.287v-742.543h168.746v-135.001h67.513v-67.513h-540.029v67.513h67.489v135.001h168.769v742.543h-260.334l114.236-371.26h76.348v-33.744c0-130.286-106.020-236.282-236.258-236.282-130.286 0-236.282 105.996-236.282 236.282v33.744h76.324l114.236 371.26h-123.047v67.513h1017.070v-67.513h-123.071l114.236-371.26zM333.024 515.512l-89.279 290.244-89.326-290.244zM833.95 515.512h178.628l-89.302 290.244z" />
<glyph unicode="&#xe920;" glyph-name="tune" d="M422 26.014c0.142 38.81 24.848 71.814 59.374 84.283l0.626 0.198v129.468c-136.336 19.391-240.019 135.339-240.019 275.504 0 1.136 0.007 2.27 0.020 3.403l-0.002-0.172v351.316c0 49.706 40.294 90 90 90s90-40.294 90-90v-355.291c-0.030-0.891-0.047-1.938-0.047-2.989 0-45.168 31.661-82.941 74.001-92.337l0.629-0.117c4.582-0.825 9.856-1.297 15.241-1.297 49.708 0 90.022 40.219 90.177 89.89v362.142c0 49.706 40.294 90 90 90s90-40.294 90-90v0-362.025c0.001-0.255 0.001-0.556 0.001-0.857 0-138.095-104.556-251.769-238.823-266.18l-1.178-0.103v-130.38c35.089-12.764 59.696-45.827 59.696-84.638 0-49.622-40.226-89.848-89.848-89.848s-89.848 40.226-89.848 89.848c0 0.055 0 0.11 0 0.165v-0.009zM910.785 426.799l-60 60c-5.429 5.429-8.788 12.93-8.788 21.215 0 16.57 13.433 30.003 30.003 30.003 8.285 0 15.786-3.358 21.215-8.788l60-60c5.429-5.429 8.788-12.93 8.788-21.215 0-16.57-13.433-30.003-30.003-30.003-8.285 0-15.786 3.358-21.215 8.788v0zM70.785 426.799c-5.43 5.429-8.789 12.93-8.789 21.215s3.359 15.786 8.789 21.215l60.025 60c5.429 5.429 12.93 8.788 21.215 8.788 16.57 0 30.003-13.433 30.003-30.003 0-8.285-3.358-15.786-8.788-21.215l-60-60c-5.43-5.438-12.936-8.801-21.228-8.801s-15.797 3.364-21.227 8.801v0zM902 597.989c-16.576 0-30.013 13.437-30.013 30.013s13.437 30.013 30.013 30.013v0h92c16.576 0 30.013-13.437 30.013-30.013s-13.437-30.013-30.013-30.013v0zM30 597.989c-16.576 0-30.013 13.437-30.013 30.013s13.437 30.013 30.013 30.013v0h92c16.576 0 30.013-13.437 30.013-30.013s-13.437-30.013-30.013-30.013v0zM850.785 726.799c-5.418 5.435-8.768 12.934-8.768 21.215s3.35 15.78 8.769 21.216l59.999 60.024c5.429 5.429 12.93 8.788 21.215 8.788 16.57 0 30.003-13.433 30.003-30.003 0-8.285-3.358-15.786-8.788-21.215l-60-60.025c-5.429-5.43-12.93-8.789-21.215-8.789s-15.786 3.359-21.215 8.789v0zM130.785 726.799l-59.899 60c-6.049 5.509-9.831 13.417-9.831 22.208 0 16.569 13.431 30 30 30 8.766 0 16.654-3.76 22.139-9.755l0.021-0.023 60-60.025c5.171-5.382 8.356-12.706 8.356-20.773 0-16.569-13.431-30-30-30-8.074 0-15.403 3.19-20.796 8.377l0.010-0.009z" />
<glyph unicode="&#xe921;" glyph-name="specification" horiz-adv-x="881" d="M880.602 448.031l-880.602-511.969v1023.939z" />
<glyph unicode="&#xe922;" glyph-name="explore" horiz-adv-x="837" d="M213.465-64h-213.465v655.735c0 220.858 166.649 368.265 418.573 368.265 250.937 0 418.525-147.431 418.525-368.265v-655.735h-623.633z" />
</font>
</defs>
</svg>
